查看: 692|回复: 5
上一主题 下一主题 跳转到指定楼层

求动画苍穹的法芙娜全集高清DVD版 1000SOSB

178

主题

106

存在感

45

活跃日
南家三姐妹-南千秋
帅哥离线 NTR,真王道
 4 

SOS团一星级★

发帖: 933
SOS币: 390
注册: 2010-06-30
访问: 2014-12-06

楼主
发表于 2011/10/06 | 编辑
所求如题,剧场版前几日已看过,意犹未尽所以想补完,但是网络资源甚少,TORA酱、极影、度娘全都不给力,真的很蛋疼,不求速度如何,但求能稳定的有速度的下完即可。 好人一生平安  

国庆结束了,不求了,可惜呀。


[ 此贴被天然与萝莉在2011-10-08 18:11重新编辑 ]

13

主题

112

存在感

142

活跃日
 5 

SOS团二星级★★

1楼
发表于 2011/10/06 | 编辑
http://ra.gg/!Ogyq1
http://ra.gg/!ZXBq1
http://ra.gg/!aXBq1  目前看到画质最好的版本,失去信仰什么的LZ先自行解决吧,实在不行再PM咱

73

主题

74

存在感

98

活跃日
命运石之门-牧濑红莉栖Fate/Zero-爱丽丝菲尔Fate/Zero-伊利亚斯菲尔
帅哥离线 好机油,一张纸
 4 

SOS团一星级★

2楼
发表于 2011/10/06 | 编辑

178

主题

106

存在感

45

活跃日
南家三姐妹-南千秋
帅哥离线 NTR,真王道
 4 

SOS团一星级★

3楼
发表于 2011/10/06 | 编辑
继续求,以上两位好人一生平安,可惜不达标

808

主题

863

存在感

567

活跃日
圣诞特别版卡片-凉宫春日零之使魔-露易丝·法兰西斯·露·布朗·杜·拉·瓦利埃尔凉宫春日的忧郁-凉宫春日旋风管家-桂雏菊(艾西亚 定制)旋风管家-三千院凪黑Saber(第一期-限定卡)未来日记-我妻由乃我的青春恋爱物语果然有问题-雪之下雪乃只有神知道的世界-艾露西凉宫春日酱的忧郁-凉宫春日酱BLEACH-朽木露琪亚只有神知道的世界-白娅
喵~离线 原QQ號己被封 有事可PM或Email
 9 

SOS团之无敌水王!

4楼
发表于 2011/10/07 | 编辑
這貨???


剛在U2下了看了第一集不像太好看太基了………
如要在我刪前找我

808

主题

863

存在感

567

活跃日
圣诞特别版卡片-凉宫春日零之使魔-露易丝·法兰西斯·露·布朗·杜·拉·瓦利埃尔凉宫春日的忧郁-凉宫春日旋风管家-桂雏菊(艾西亚 定制)旋风管家-三千院凪黑Saber(第一期-限定卡)未来日记-我妻由乃我的青春恋爱物语果然有问题-雪之下雪乃只有神知道的世界-艾露西凉宫春日酱的忧郁-凉宫春日酱BLEACH-朽木露琪亚只有神知道的世界-白娅
喵~离线 原QQ號己被封 有事可PM或Email
 9 

SOS团之无敌水王!

5楼
发表于 2011/10/08 | 编辑
Soukyuu_no_Fafner_苍穹之战神[RAW]\(Anime DVD) Soukyuu no Fafner - 01 - Raw [704x480 x264 AAC rev].mp4
Format                           : MPEG-4
Format profile                   : Base Media
Codec ID                         : isom
File size                        : 424 MiB
Duration                         : 23mn 49s
Overall bit rate                 : 2 490 Kbps
Encoded date                     : UTC 2008-07-20 15:51:51
Tagged date                      : UTC 2008-07-20 15:51:51

Video
ID                               : 1
Format                           : AVC
Format/Info                      : Advanced Video Codec
Format profile                   : High@L5.1
Format settings, CABAC           : Yes
Format settings, ReFrames        : 3 frames
Codec ID                         : avc1
Codec ID/Info                    : Advanced Video Coding
Duration                         : 23mn 49s
Bit rate mode                    : Variable
Bit rate                         : 2 310 Kbps
Maximum bit rate                 : 13.1 Mbps
Width                            : 704 pixels
Height                           : 480 pixels
Display aspect ratio             : 3:2
Original display aspect ratio    : 4:3
Frame rate mode                  : Variable
Frame rate                       : 24.813 fps
Original frame rate              : 29.970 fps
Minimum frame rate               : 14.985 fps
Maximum frame rate               : 119.880 fps
Standard                         : NTSC
Color space                      : YUV
Chroma subsampling               : 4:2:0
Bit depth                        : 8 bits
Scan type                        : Progressive
Bits/(Pixel*Frame)               : 0.275
Stream size                      : 394 MiB (93%)
Writing library                  : x264 core 59
Encoding settings                : cabac=1 / ref=3 / deblock=1:0:0 / analyse=0x3:0x113 / me=hex / subme=7 / brdo=0 / mixed_ref=1 / me_range=16 / chroma_me=1 / trellis=0 / 8x8dct=1 / cqm=1 / deadzone=21,11 / chroma_qp_offset=0 / threads=2 / nr=0 / decimate=1 / mbaff=0 / bframes=2 / b_pyramid=0 / b_adapt=1 / b_bias=0 / direct=3 / wpredb=0 / bime=0 / keyint=250 / keyint_min=25 / scenecut=40(pre) / rc=crf / crf=13.0 / rceq='blurCplx^(1-qComp)' / qcomp=1.00 / qpmin=10 / qpmax=51 / qpstep=4 / ip_ratio=1.40 / pb_ratio=1.30 / aq=2:1.00
Encoded date                     : UTC 2008-07-20 11:16:07
Tagged date                      : UTC 2008-07-20 15:52:06

Audio
ID                               : 2
Format                           : AAC
Format/Info                      : Advanced Audio Codec
Format version                   : Version 4
Format profile                   : LC
Format settings, SBR             : No
Codec ID                         : 40
Duration                         : 23mn 49s
Bit rate mode                    : Variable
Bit rate                         : 177 Kbps
Maximum bit rate                 : 221 Kbps
Channel(s)                       : 2 channels
Channel positions                : Front: L R
Sampling rate                    : 48.0 KHz
Stream size                      : 30.1 MiB (7%)
Encoded date                     : UTC 2008-07-21 15:50:39
Tagged date                      : UTC 2008-07-20 15:52:06

关于我们|无图版|SOSG WIKI |投放广告

Copyright © 2006-2020 SosG.Net
Total 0.015717(s) query 7, Gzip enabled,  沪ICP备07006640号